Вернуться   Форум ХабИнфО > Склад магнетов > Видеотека

Видеотека Фильмы, ролики, трейлеры и т.д.

загрузка...
Ответ
 
Опции темы
Старый 07.01.2012, 11:56   #1
Cross
О чём молчу..
 
Аватар для Cross
 
Регистрация: 01.03.2007
Адрес: Prospect of tha Truth
Сообщений: 2,121
Спасибо 644 раз(а) в 408 постах
Вес репутации: 188
Cross как роза среди колючекCross как роза среди колючекCross как роза среди колючекCross как роза среди колючекCross как роза среди колючекCross как роза среди колючекCross как роза среди колючекCross как роза среди колючекCross как роза среди колючекCross как роза среди колючекCross как роза среди колючек
Хорошо Где Господь оставил свои ботинки / Where God Left His Shoes (2007)


Режиссёр: Сальваторе Стэбил
В ролях: Джон Легуизамо, Леонор Варела и др.

Перевод: Профессиональный (двухголосый закадровый) [Студия NLS]

Описание:
Это история Фрэнка, Анджелы и их двоих детей. Когда их выселяют из съёмной квартиры, у них нет выбора, кроме как переехать в приют для бездомных. После нескольких трудных месяцев, проблеск надежды прибыл в канун Рождества: неподалеку проекта жилье квартиры доступны немедленно. Загвоздка в том, что Фрэнку нужна работа, чтобы его семья получила право там поселится. Хотя остальной город готовится к Рождеству, Фрэнк и его десятилетний пасынок, Джастин, бродят холодными улицами города, пытаясь найти работу к концу дня так, чтобы попасть домой на Рождество утром
(кинопоиск.ру).





Format : AVI
Format/Info : Audio Video Interleave
File size : 700 MiB
Duration : 1h 40mn
Overall bit rate : 970 Kbps
Movie name : Gde.Gospod.Ostavil.Svoi.Botinki
Original source form/Distributed by : Where.God.Left.His.Shoes.2007.LiMiTED.PROPER.DVDRip.XviD-ARiGOLD.avi
Genre : Drama
Copyright : 25KADR
Comment : DVO (NLS studio)
Video #0
ID : 0
Format : MPEG-4 Visual
Format profile : Advanced Simple@L5
Format settings, BVOP : 2
Format settings, QPel : No
Format settings, GMC : No warppoints
Format settings, Matrix : Default (MPEG)
Codec ID : XVID
Codec ID/Hint : XviD
Duration : 1h 40mn
Bit rate : 848 Kbps
Width : 608 pixels
Height : 336 pixels
Display aspect ratio : 16:9
Frame rate : 23.976 fps
Color space : YUV
Chroma subsampling : 4:2:0
Bit depth : 8 bits
Scan type : Progressive
Compression mode : Lossy
Bits/(Pixel*Frame) : 0.173
Stream size : 612 MiB (87%)
Writing library : XviD 1.1.2 (UTC 2006-11-01)
Audio #1
ID : 1
Format : MPEG Audio
Format version : Version 1
Format profile : Layer 3
Mode : Joint stereo
Mode extension : MS Stereo
Codec ID : 55
Codec ID/Hint : MP3
Duration : 1h 40mn
Bit rate mode : Constant
Bit rate : 112 Kbps
Channel(s) : 2 channels
Sampling rate : 48.0 KHz
Compression mode : Lossy
Stream size : 80.8 MiB (12%)
Alignment : Aligned on interleaves
Interleave, duration : 42 ms (1.00 video frame)
Interleave, preload duration : 504 ms
Language : Russian
Gde.Gospod.Ostavil.Svoi.Botinki.2007.XviD.Rus_25KADR.avi (699,5 Mb)

__________________
Believe it or not, the bus can swim!

Последний раз редактировалось Cross; 08.01.2012 в 13:51.
Cross вне форума   Ответить с цитированием
Старый 07.01.2012, 11:56
Ответ

Метки
драма, рождество

Опции темы

Интересное

Ваши права в разделе
Вы не можете создавать новые темы
Вы не можете отвечать в темах
Вы не можете прикреплять вложения
Вы не можете редактировать свои сообщения

BB коды Вкл.
Смайлы Вкл.
[IMG] код Вкл.
HTML код Выкл.

Быстрый переход

Похожие темы
Тема Автор Раздел Ответов Последнее сообщение
Свои фотографии... Psih Авторское 40 29.08.2016 15:13
One Morning Left - The Bree-TeenZ (2011) Cross Rock & Metal 0 29.10.2011 15:46
Left 4 Dead (2008) Англ/Рус (no-Steam) Strem Action / Аркада 7 08.12.2008 00:15
Авто-Ботинки Tabaska Автомобильная тусовка 3 13.11.2007 11:07

Есть новые сообщения   Есть новые сообщения
Нет новых сообщений   Нет новых сообщений
Закрытый раздел   Закрыто для сообщений

Текущее время: 20:08. Часовой пояс GMT +3.

При использовании любых материалов сайта - гиперссылка на http://uahub.info/ - ОБЯЗАТЕЛЬНА!!
Powered by vBulletin® Version 3.8.4
Copyright ©2000 - 2017, Jelsoft Enterprises Ltd. Перевод: zCarot